top of page

The Prayer Circle

Public·11 Prayer Partner

Un Regalo Inaspettato Torrent Ita



My release is always in double track audio italian and Original audiofor select it use VLC or dvd player homenot use wmpENGLISH SUBTITLE INSIDEIo che amo solo te (2015) DATA USCITA: 22 ottobre 2015GENERE: CommediaANNO: 2015REGIA: Marco PontiSCENEGGIATURA: Marco Ponti, Lucia MoisioFOTOGRAFIA: Roberto ForzaMONTAGGIO: Consuelo CatucciDISTRIBUZIONE: 01 DistributionPAESE: ItaliaDURATA: 102 MinRiccardo Scamarcio, Laura Chiatti, Michele Placido, Luciana Littizzetto, Maria Pia Calzone, Eva Riccobono, Eugenio Franceschini, Dario Bandiera, Alessandra Amoroso, Enzo Salvi, Dino Abbrescia, Antonio GerardiNinella ha cinquant'anni e un grande amore, don Mimì, con cui non si è potuta sposare. Ma il destino le fa un regalo inaspettato: sua figlia si fidanza proprio con il figlio dell'uomo che ha sempre sognato, e i due ragazzi decidono di convolare a nozze. Il matrimonio di Chiara e Damiano si trasforma così in un vero e proprio evento per Polignano a Mare, paese bianco e arroccato in uno degli angoli più magici della PugliaNinella fifty years and has a great love, Don Mimi, which has not been able to marry. But fate makes an unexpected gift: her daughter gets engaged precisely with the son of man who has always dreamed of, and the two boys decide to get married. The wedding of Clare and Damiano is thus transformed into a real event for Polignano a Mare, a white town perched on one of the most magical corners of Puglia[spoiler]GeneralUnique ID : 34289481956174364798321751425785715642 (0x19CBE9FC687A4CFCBAE7C915F326DBBA)Complete name : Io che amo solo te (2015).H264.ita.sub.ita.eng.iCV-MIRCrew.mkvFormat : MatroskaFormat version : Version 2File size : 1.21 GiBDuration : 1h 41mnOverall bit rate : 1 701 KbpsMovie name : VISIT www.icv-crew.orgEncoded date : UTC 2016-10-09 19:44:33Writing application : Lavf54.63.100Writing library : Lavf54.63.100VideoID : 1Format : AVCFormat/Info : Advanced Video CodecFormat profile : [email protected] Format settings, CABAC : YesFormat settings, ReFrames : 2 framesCodec ID : V_MPEG4/ISO/AVCDuration : 1h 41mnBit rate : 1 250 KbpsWidth : 720 pixelsHeight : 300 pixelsDisplay aspect ratio : 2.40:1Frame rate mode : VariableFrame rate : 24.000 fpsColor space : YUVChroma subsampling : 4:2:0Bit depth : 8 bitsScan type : ProgressiveBits/(Pixel*Frame) : 0.241Stream size : 887 MiB (72%)Writing library : x264 core 130 r2273Encoding settings : cabac=1 / ref=2 / deblock=1:0:0 / analyse=0x1:0x131 / me=hex / subme=7 / psy=1 / psy_rd=1.00:0.00 / mixed_ref=0 / me_range=16 / chroma_me=1 / trellis=1 / 8x8dct=0 / cqm=0 / deadzone=21,11 / fast_pskip=1 / chroma_qp_offset=-2 / threads=12 / lookahead_threads=2 / sliced_threads=0 / nr=0 / decimate=1 / interlaced=0 / bluray_compat=0 / constrained_intra=0 / bframes=3 / b_pyramid=0 / b_adapt=1 / b_bias=0 / direct=3 / weightb=1 / open_gop=0 / weightp=2 / keyint=240 / keyint_min=24 / scenecut=40 / intra_refresh=0 / rc_lookahead=40 / rc=2pass / mbtree=1 / bitrate=1250 / ratetol=1.0 / qcomp=0.60 / qpmin=10 / qpmax=69 / qpstep=4 / cplxblur=20.0 / qblur=0.5 / vbv_maxrate=24000 / vbv_bufsize=24000 / nal_hrd=none / ip_ratio=1.40 / aq=1:1.00Language : ItalianDefault : YesForced : YesDURATION : 01:41:43.209000000NUMBER_OF_FRAMES : 146477NUMBER_OF_BYTES : 6125559746_STATISTICS_WRITING_APP : mkvmerge v8.8.0 ('Wind at my back') 64bit_STATISTICS_WRITING_DATE_UTC : 2016-02-04 16:12:56_STATISTICS_TAGS : BPS DURATION NUMBER_OF_FRAMES NUMBER_OF_BYTESAudioID : 2Format : AC-3Format/Info : Audio Coding 3Mode extension : CM (complete main)Codec ID : A_AC3Duration : 1h 41mnBit rate mode : ConstantBit rate : 448 KbpsChannel(s) : 6 channelsChannel positions : Front: L C R, Side: L R, LFESampling rate : 48.0 KHzBit depth : 16 bitsCompression mode : LossyDelay relative to video : 1mn 5sStream size : 326 MiB (26%)Language : ItalianDefault : YesForced : YesDURATION : 01:41:42.923000000NUMBER_OF_FRAMES : 572149NUMBER_OF_BYTES : 1151163788_STATISTICS_WRITING_APP : mkvmerge v8.8.0 ('Wind at my back') 64bit_STATISTICS_WRITING_DATE_UTC : 2016-02-04 16:12:56_STATISTICS_TAGS : BPS DURATION NUMBER_OF_FRAMES NUMBER_OF_BYTESText #2ID : 4Format : UTF-8Codec ID : S_TEXT/UTF8Codec ID/Info : UTF-8 Plain TextTitle : ItalianoLanguage : ItalianDefault : NoForced : NoDURATION : 01:36:45.959000000NUMBER_OF_FRAMES : 1206 NUMBER_OF_BYTES : 48842_STATISTICS_WRITING_APP : mkvmerge v8.8.0 ('Wind at my back') 64bit_STATISTICS_WRITING_DATE_UTC : 2016-02-04 16:12:56_STATISTICS_TAGS : BPS DURATION NUMBER_OF_FRAMES NUMBER_OF_BYTESText #3ID : 5Format : UTF-8Codec ID : S_TEXT/UTF8Codec ID/Info : UTF-8 Plain TextTitle : EnglishLanguage : EnglishDefault : NoForced : NoDURATION : 01:40:02.833000000NUMBER_OF_FRAMES : 1345NUMBER_OF_BYTES : 44191_STATISTICS_WRITING_APP : mkvmerge v8.8.0 ('Wind at my back') 64bit_STATISTICS_WRITING_DATE_UTC : 2016-02-04 16:12:56_STATISTICS_TAGS : BPS DURATION NUMBER_OF_FRAMES NUMBER_OF_BYTESMenu00:00:00.000 : :Capitolo 0100:05:37.083 : :Capitolo 0200:12:00.250 : :Capitolo 0300:20:28.292 : :Capitolo 0400:33:41.875 : :Capitolo 0500:38:27.333 : :Capitolo 0600:42:51.333 : :Capitolo 0700:47:27.000 : :Capitolo 0800:54:25.833 : :Capitolo 0901:00:58.208 : :Capitolo 1001:04:21.875 : :Capitolo 1101:09:28.958 : :Capitolo 1201:13:34.792 : :Capitolo 1301:18:20.125 : :Capitolo 1401:29:52.208 : :Capitolo 1501:36:57.625 : :Capitolo 16[/spoiler]




Un Regalo Inaspettato Torrent Ita



Come vedremo nella nostra recensione di Un regalo da Tiffany, pur non rappresentando certo qualcosa di nuovo in assoluto nel panorama dei film di Natale, la pellicola diretta da Daryl Wein vanta una premessa interessante e una trama ben costruita attorno a una combinazione di equivoci e disavventure. La performance di Zoey Deutch e la sua breve durata, contribuiscono alla riuscita di una pellicola a volte carente nelle battute ma piacevole da guardare.


Un regalo da Tiffany è un film di Natale che, pur non rappresentando certo qualcosa di innovativo nel panorama del genere, vanta una premessa interessante e una trama sapientemente costruita attorno a una combinazione di equivoci, errori e disavventure. La performance di Zoey Deutch e la sua breve durata, contribuiscono alla riuscita di una pellicola a volte carente nelle battute ma piacevole da guardare.


About

Welcome to the group! You can connect with other members, ge...
Group Page: Groups_SingleGroup
bottom of page